#TITLE:Pandora;
#SUBTITLE:Expi3nze;
#ARTIST:KARA;
#TITLETRANSLIT:;
#SUBTITLETRANSLIT:;
#ARTISTTRANSLIT:;
#CREDIT:;
#BANNER:bn.png;
#BACKGROUND:bg.png;
#LYRICSPATH:;
#CDTITLE:cdtitle.png;
#MUSIC:Pandora.mp3;
#OFFSET:-0.209;
#SAMPLESTART:100.000;
#SAMPLELENGTH:12.000;
#SELECTABLE:YES;
#BPMS:0.000=140.000,109.000=280.059,109.500=70.000,109.750=140.030,110.000=140.000,187.000=280.000,189.000=140.000,191.000=280.000,193.000=140.000,197.000=280.000,199.000=140.000,203.000=70.000,203.250=280.059,203.750=70.000,204.000=280.059,204.500=70.000,204.667=280.000,205.000=70.000,205.250=280.059,205.750=70.000,206.000=280.059,206.500=70.000,206.667=280.000,207.000=140.000,209.000=280.000,213.000=70.000,221.000=140.000,241.000=280.059,241.500=560.119,243.000=559.645,243.500=280.059,244.000=140.000;
#STOPS:;
#BGCHANGES:;
// cache tags:
#FIRSTBEAT:4.000;
#LASTBEAT:314.000;
#SONGFILENAME:Songs/Expi3nze 4th Collection/Pandora (KARA)/Pandora.sm;
#HASMUSIC:1;
#HASBANNER:1;
#MUSICLENGTH:136.450;
// end cache tags

//---------------dance-single - ----------------
#NOTES:
     dance-single:
     :
     Hard:
     16:
     1.000,1.000,1.000,0.975,0.183,539.000,263.000,133.000,0.000,190.000:
0000
0000
0000
0000
,
0110
0000
0000
0110
0000
0000
0000
0000
,
1001
0000
0000
0000
0000
0000
1001
0000
0000
0000
0010
0000
0111
0000
0100
0010
,
0001
2000
3021
1031
0020
0230
1301
0200
,
1301
0200
1301
1001
0001
1000
0111
1000
,
1000
0202
1320
1030
0203
0302
0103
0200
,
1310
0200
1310
1010
0100
0001
1110
0001
,
1100
0020
2030
3101
0201
0302
1103
0020
,
1130
0000
0001
0010
0101
0000
0101
0000
0020
0000
0230
0000
1311
0000
0010
0000
,
0100
0002
2013
3011
2000
3020
1031
2000
,
3010
0000
2010
0000
3101
0000
0020
0000
0100
0001
0100
0000
0200
0000
0000
0000
,
1331
1001
1001
1110
1010
0011
0110
1100
,
0111
0101
1010
1110
0101
0101
1010
1001
,
1101
0011
1001
1101
0110
0110
1001
0101
,
1011
1010
1100
1101
0101
1010
1010
0101
,
0111
1010
1010
1011
0110
1010
0101
0101
,
1011
1010
0101
0111
1010
1010
1001
1100
,
1101
0001
0100
1110
0001
1000
0010
1000
,
0111
0000
1000
0000
0010
0000
1011
0000
1000
0010
0010
0000
0100
0100
0001
0001
,
1100
0010
0111
0111
0010
1000
0111
1000
,
0100
0000
0001
0100
1011
0000
1101
0000
0010
0000
0010
0000
1101
0000
0010
0000
,
1110
0010
1101
1011
0010
1000
0111
1000
,
0010
0000
0010
0001
1110
0000
1110
0000
0010
0000
1000
0000
0111
0000
1000
0000
,
0111
1000
0111
1110
0010
0010
1101
0010
,
1000
0000
0010
0100
1011
0000
1101
0000
0001
0000
0100
0000
1110
0000
0100
0000
,
1011
0100
0111
0111
0100
0001
2111
0000
,
0010
0000
0000
0000
0000
0000
0100
0000
0000
0000
0000
0000
0010
0000
0000
0000
0000
0000
0210
0000
0000
0000
0000
0000
0010
0000
0000
0000
0010
0000
0000
0000
0010
0000
0000
0000
0312
0000
0000
0000
0000
0000
0200
0000
0000
0003
0000
0000
,
3011
0000
0300
0000
1111
0000
0000
0000
0020
0000
0000
0000
0032
0000
0000
0200
,
0003
0000
1011
0000
0010
0011
1001
1001
,
1300
0000
0011
0000
0110
0000
1100
0000
0001
0000
0101
0000
0101
0000
1000
0100
,
0010
0000
0100
0000
1110
0000
1000
0100
2010
0000
0010
0000
0121
0000
0000
0000
,
3131
0000
0111
0000
0010
0000
1000
0000
1200
0000
0000
0000
1320
0000
0000
2000
,
0030
0000
0111
0000
0010
0101
0101
3202
,
1000
1000
1010
0000
1000
1000
1010
2303
,
3022
1000
1000
1000
,
1133
2000
3021
1031
0020
0230
1301
0200
,
1301
0200
1301
1001
0001
1000
0111
1000
,
1000
0202
1320
1030
0203
0302
0103
0200
,
1310
0200
1310
1010
0100
0001
1110
0001
,
1100
0020
2030
3101
0201
0302
1103
0020
,
1130
0000
0001
0010
0101
0000
0101
0000
0020
0000
0230
0000
1311
0000
0010
0000
,
0100
0002
2013
3011
2000
3020
1031
2000
,
3010
0000
2010
0000
3101
0000
0020
0000
0100
0001
0100
0000
0200
0000
0000
0000
,
1332
0000
0000
1110
0000
0000
1010
0000
1110
0000
0000
0000
1110
0000
0000
0000
,
1023
0000
0000
1101
0000
0000
1001
0000
1101
0000
0000
0000
1101
0000
0000
0000
,
2131
0000
0000
0111
0000
0000
0101
0000
0111
0000
0000
0000
0111
0000
0000
0000
,
3012
0000
0000
1110
0000
0000
1010
0000
1110
0000
0000
0000
0200
0000
0000
0000
,
0000
0000
1303
0100
1110
0001
0020
0000
,
0000
0000
0031
0010
0111
1000
1010
1010
,
1020
0231
0000
0302
,
0100
0000
0100
0000
1110
0000
0000
0000
1000
0100
1000
0010
1103
0000
0000
1100
,
0000
0000
1011
0000
1011
0000
0000
1101
0000
0000
1101
0000
1102
0000
0000
0000
,
0000
0200
0000
0000
,
0000
0000
0000
0000
0300
0000
0000
0000
0103
0000
0010
0000
0001
1000
0100
0000
1000
0100
0001
0000
0010
0000
0000
0000
0001
0000
0001
0000
0100
0000
0010
0000
,
0000
0100
0010
1000
0120
1000
0100
0100
0000
0000
2000
0000
0030
0000
3000
0002
,
0000
1000
1003
0010
1010
0000
0000
0100
0001
0000
0100
0000
0101
0000
0001
0100
,
1001
0000
1010
0000
1001
0000
0010
0001
1010
0000
1010
0000
1010
0000
0001
0010
,
0101
0000
0101
0000
0010
0000
1000
0001
1100
0000
1100
0000
0001
0000
1001
0000
,
1201
0322
0000
0000
,
0000
0030
0000
0000
,
0000
0003
0000
0000
,
1111
0000
0000
0000
0020
0000
0000
0000
0032
0000
0000
0200
0003
0000
0000
0000
,
1011
0000
0010
0011
1001
1001
1300
0011
,
0110
0000
1100
0000
0001
0000
0101
0000
0101
0000
1000
0100
0010
0000
0100
0000
,
1110
0000
1000
0100
2010
0000
0010
0000
0121
0000
0000
0000
3131
0000
0111
0000
,
0010
0000
1000
0000
1200
0000
0000
0000
1320
0000
0000
2000
0030
0000
0000
0000
,
0111
0000
0010
0101
0101
3202
1000
1000
,
1010
0000
1000
1000
1010
2303
3022
0000
,
1000
0000
1000
0000
1000
0000
1133
2000
,
3021
1031
0020
0230
1301
0200
1301
0200
,
1301
1001
0001
1000
0111
1000
1000
0202
,
1320
1030
0203
0302
0103
0200
1310
0200
,
1310
1010
0100
0001
1110
0001
1100
0020
,
2030
0000
3101
0000
0201
0000
0302
0000
1103
0000
0020
0000
1130
0000
0001
0010
,
0101
0101
0020
0230
1311
0010
0100
0002
,
2013
3011
2000
3020
1031
2000
3010
2010
,
3101
0000
0020
0000
0100
0001
0100
0000
0200
0000
0000
0000
2002
0000
0000
0000
,
0000
0300
0000
3003
,
0000
0000
0030
0000
,
0000
0000
0000
0000
,
0000
0000
0000
0000
,
0000
0000
0000
0000
,
0000
0000
0000
0000
;
